topgood
武林盟主

[2022] [美国] [剧情] [BD-1080P] 新蝙蝠侠 The.Batman.2022.1080p.BluRay.x264.TrueHD.7.1.Atmos-FGT 18.62GB

-->

帖子完整标题:新蝙蝠侠 The.Batman.2022.1080p.BluRay.x264.TrueHD.7.1.Atmos-FGT 18.62GB



◎标  题 新蝙蝠侠
◎译  名 蝙蝠侠(港 / 台) / 重启版蝙蝠侠
◎片  名 The Batman
◎年  代 2022
◎产  地 美国
◎类  别 剧情 / 动作 / 悬疑 / 犯罪
◎语  言 英语
◎上映日期 2022-03-18(中国大陆) / 2022-03-01(韩国) / 2022-03-04(美国) / 2022-04-19(美国网络)
◎IMDb链接 https://www.imdb.com/title/tt1877830/
◎豆瓣评分 7.3/10 (230173人评价)
◎豆瓣链接 https://movie.douban.com/subject/6424756/
◎片  长 176分钟
◎导  演 马特·里夫斯 Matt Reeves
◎编  剧 马特·里夫斯 Matt Reeves
      彼得·克莱格 Peter Craig
      比尔·芬格 Bill Finger
      鲍勃·凯恩 Bob Kane
      马特森·汤姆林 Mattson Tomlin
◎演  员 罗伯特·帕丁森 Robert Pattinson
      佐伊·克罗维兹 Zoë Kravitz
      保罗·达诺 Paul Dano
      科林·法瑞尔 Colin Farrell
      杰弗里·怀特 Jeffrey Wright
      安迪·瑟金斯 Andy Serkis
      约翰·特托罗 John Turturro
      彼得·萨斯加德 Peter Sarsgaard
      巴里·基奥恩 Barry Keoghan
      杰米·劳森 Jayme Lawson
      吉尔·佩雷斯-亚伯拉罕 Gil Perez-Abraham
      彼得·麦克唐纳德 Peter McDonald
      康·奥尼尔 Con O'Neill
      亚历克斯·费恩斯 Alex Ferns
      鲁伯特·彭利-琼斯 Rupert Penry-Jones
      科莎·恩格勒 Kosha Engler
      杰宁·哈瑞妮 Janine Harouni
      卢克·罗伯茨 Luke Roberts
      斯特拉·斯托克尔 Stella Stocker
      桑德拉·迪金森 Sandra Dickinson
      杰克·班尼特 Jack Bennett
      约瑟夫·巴德拉玛 Joseph Balderrama
      詹姆斯·伊莱斯 James Eeles
      小利莫尔·马雷特 Leemore Marrett Jr.
      斯图尔特·亚历山大 Stewart Alexander
      马库斯·奥尼卢德 Marcus Onilude
      埃琳娜·沙雷 Elena Saurel
      托德·博伊斯 Todd Boyce
      道格拉斯·罗素 Douglas Russell
      查尔斯·卡维尔 Charles Carver
      马克斯·卡维尔 Max Carver
      马克·基林 Mark Killeen
      洛娜·布朗 Lorna Brown
      埃利奥特·沃伦 Elliot Warren
      小田部阿基 Akie Kotabe
      布隆森·韦伯 Bronson Webb
      阿瑟·李 Arthur Lee
      派瑞 格拉斯普 Parry Glasspool
      娜塔丽·阿明 Nathalie Armin
      何塞‧帕尔马 Jose Palma
      玛吉·巴基尔 Maggie Bakir
      露丝·霍洛克斯 Ruth Horrocks
      贝恩·科拉科 Bern Collaço
      丹尼尔·厄根 Daniel Eghan
      雷切尔·汉德肖 Rachel Handshaw
      爵克·哈迪 Juke Hardy
      奥斯卡·诺瓦克 Oscar Novak
      吉米·斯达 Jimmy Star
      妮可拉·吉恩·马祖尔 Nichola Jean Mazur
      杰伊·利库戈 Jay Lycurgo
      马特·里夫斯 Matt Reeves
      迪伦·克拉克 Dylan Clark
      马切尔·E·尤斯兰 Michael E. Uslan
      迈克·吉亚奇诺 Michael Giacchino
      格雷格·弗莱瑟 Greig Fraser
      泰勒·纳尔逊 Tyler Nelson
      辛迪·托兰 Cindy Tolan
      詹姆斯·钦伦德 James Chinlund
      大卫·克罗斯曼 David Crossman
      杰奎琳·杜兰 Jacqueline Durran
      格林·狄龙 Glyn Dillon
      丹·赖蒙 Dan Lemmon

◎简  介
  布鲁斯·韦恩(罗伯特·帕丁森 饰)化身蝙蝠侠于哥谭市行侠仗义两年后,罪犯皆闻风丧胆,他也因此深入接触到哥谭市的阴暗面。他潜行于哥谭市腐败的政要名流关系网中,身边仅有的几个值得信赖的盟友——管家阿尔弗雷德·潘尼沃斯(安迪·瑟金斯 饰)与詹姆斯·戈登警长(杰弗里·怀特 饰)。这位独行的“义警侠探”在哥谭市民心中已成为“复仇”二字最当仁不让的代名词。

Video
ID : 1
Format : AVC
Format/Info : Advanced Video Codec
Format profile : [email protected]
Format settings : CABAC / 4 Ref Frames
Format settings, CABAC : Yes
Format settings, Reference frames : 4 frames
Codec ID : V_MPEG4/ISO/AVC
Duration : 2 h 56 min
Bit rate : 11.5 Mb/s
Width : 1 920 pixels
Height : 804 pixels
Display aspect ratio : 2.40:1
Frame rate mode : Constant
Frame rate : 23.976 (24000/1001/189150) FPS
Color space : YUV
Chroma subsampling : 4:2:0
Bit depth : 8 bits
Scan type : Progressive
Bits/(Pixel*Frame) : 0.311
Stream size : 14.2 GiB (76%)
Writing library : x264 core 148 r2795M aaa9aa8
Encoding settings : cabac=1 / ref=4 / deblock=1:-2:-2 / analyse=0x3:0x113 / me=umh / subme=9 / psy=1 / psy_rd=1.00:0.15 / mixed_ref=1 / me_range=16 / chroma_me=1 / trellis=2 / 8x8dct=1 / cqm=0 / deadzone=21,11 / fast_pskip=1 / chroma_qp_offset=-3 / threads=24 / lookahead_threads=3 / sliced_threads=0 / nr=0 / decimate=1 / interlaced=0 / bluray_compat=0 / constrained_intra=0 / bframes=3 / b_pyramid=2 / b_adapt=1 / b_bias=0 / direct=3 / weightb=1 / open_gop=0 / weightp=2 / keyint=250 / keyint_min=25 / scenecut=40 / intra_refresh=0 / rc_lookahead=50 / rc=2pass / mbtree=1 / bitrate=11500 / ratetol=1.0 / qcomp=0.60 / qpmin=0 / qpmax=69 / qpstep=4 / cplxblur=20.0 / qblur=0.5 / vbv_maxrate=31250 / vbv_bufsize=31250 / nal_hrd=none / filler=0 / ip_ratio=1.40 / aq=1:1.00
Default : Yes
Forced : No

Audio #1
ID : 2
Format : MLP FBA 16-ch
Format/Info : Meridian Lossless Packing FBA with 16-channel presentation
Commercial name : Dolby TrueHD with Dolby Atmos
Codec ID : A_TRUEHD
Duration : 2 h 56 min
Bit rate mode : Variable
Bit rate : 3 028 kb/s
Maximum bit rate : 5 271 kb/s
Channel(s) : 8 channels
Channel layout : L R C LFE Ls Rs Lb Rb
Sampling rate : 48.0 kHz
Frame rate : 1 200.000 FPS (40 SPF)
Compression mode : Lossless
Stream size : 3.73 GiB (20%)
Title : TrueHD Atmos 7.1
Language : English
Default : Yes
Forced : No
Number of dynamic objects : 11
Bed channel count : 1 channel
Bed channel configuration : LFE

Audio #2
ID : 3
Format : AC-3
Format/Info : Audio Coding 3
Commercial name : Dolby Digital
Format settings : Dolby Surround EX
Codec ID : A_AC3
Duration : 2 h 56 min
Bit rate mode : Constant
Bit rate : 448 kb/s
Channel(s) : 6 channels
Channel layout : L R C LFE Ls Rs
Sampling rate : 48.0 kHz
Frame rate : 31.250 FPS (1536 SPF)
Compression mode : Lossy
Stream size : 565 MiB (3%)
Title : DD 5.1
Language : English
Service kind : Complete Main
Default : No
Forced : No

Text #1
ID : 4
Format : UTF-8
Codec ID : S_TEXT/UTF8
Codec ID/Info : UTF-8 Plain Text
Duration : 2 h 43 min
Bit rate : 45 b/s
Count of elements : 1864
Stream size : 54.2 KiB (0%)
Language : English
Default : Yes
Forced : No

Text #2
ID : 5
Format : UTF-8
Codec ID : S_TEXT/UTF8
Codec ID/Info : UTF-8 Plain Text
Duration : 2 h 55 min
Bit rate : 53 b/s
Count of elements : 2401
Stream size : 68.8 KiB (0%)
Title : SDH
Language : English
Default : No
Forced : No

Text #3
ID : 6
Format : PGS
Muxing mode : zlib
Codec ID : S_HDMV/PGS
Codec ID/Info : Picture based subtitle format used on BDs/HD-DVDs
Duration : 2 h 55 min
Bit rate : 34.3 kb/s
Count of elements : 4834
Stream size : 43.1 MiB (0%)
Title : English (SDH)
Language : English
Default : No
Forced : No

Text #4
ID : 7
Format : PGS
Muxing mode : zlib
Codec ID : S_HDMV/PGS
Codec ID/Info : Picture based subtitle format used on BDs/HD-DVDs
Duration : 2 h 55 min
Bit rate : 25.4 kb/s
Count of elements : 3836
Stream size : 32.0 MiB (0%)
Title : Bulgarian
Language : Bulgarian
Default : No
Forced : No

Text #5
ID : 8
Format : PGS
Muxing mode : zlib
Codec ID : S_HDMV/PGS
Codec ID/Info : Picture based subtitle format used on BDs/HD-DVDs
Duration : 2 h 55 min
Bit rate : 25.3 kb/s
Count of elements : 3870
Stream size : 31.9 MiB (0%)
Title : Chinese (Cantonese)
Language : Chinese
Default : No
Forced : No

Text #6
ID : 9
Format : PGS
Muxing mode : zlib
Codec ID : S_HDMV/PGS
Codec ID/Info : Picture based subtitle format used on BDs/HD-DVDs
Duration : 2 h 54 min
Bit rate : 25.1 kb/s
Count of elements : 3624
Stream size : 31.3 MiB (0%)
Title : Chinese (Traditional)
Language : Chinese
Default : No
Forced : No

Text #7
ID : 10
Format : PGS
Muxing mode : zlib
Codec ID : S_HDMV/PGS
Codec ID/Info : Picture based subtitle format used on BDs/HD-DVDs
Duration : 2 h 54 min
Bit rate : 23.5 kb/s
Count of elements : 2902
Stream size : 29.2 MiB (0%)
Title : Hungarian
Language : Hungarian
Default : No
Forced : No

Text #8
ID : 11
Format : PGS
Muxing mode : zlib
Codec ID : S_HDMV/PGS
Codec ID/Info : Picture based subtitle format used on BDs/HD-DVDs
Duration : 2 h 55 min
Bit rate : 34.2 kb/s
Count of elements : 5026
Stream size : 43.0 MiB (0%)
Title : Italian (SDH)
Language : Italian
Default : No
Forced : No

Text #9
ID : 12
Format : PGS
Muxing mode : zlib
Codec ID : S_HDMV/PGS
Codec ID/Info : Picture based subtitle format used on BDs/HD-DVDs
Duration : 2 h 55 min
Bit rate : 15.4 kb/s
Count of elements : 3788
Stream size : 19.3 MiB (0%)
Title : Korean
Language : Korean
Default : No
Forced : No

Text #10
ID : 13
Format : PGS
Muxing mode : zlib
Codec ID : S_HDMV/PGS
Codec ID/Info : Picture based subtitle format used on BDs/HD-DVDs
Duration : 2 h 54 min
Bit rate : 26.0 kb/s
Count of elements : 3556
Stream size : 32.4 MiB (0%)
Title : Romanian
Language : Romanian
Default : No
Forced : No

Text #11
ID : 14
Format : PGS
Muxing mode : zlib
Codec ID : S_HDMV/PGS
Codec ID/Info : Picture based subtitle format used on BDs/HD-DVDs
Duration : 2 h 54 min
Bit rate : 26.0 kb/s
Count of elements : 3810
Stream size : 32.3 MiB (0%)
Title : Spanish (Castilian)
Language : Spanish
Default : No
Forced : No

Menu
00:00:00.000 : en:Chapter 1
00:12:01.387 : en:Chapter 2
00:23:21.650 : en:Chapter 3
00:31:53.829 : en:Chapter 4
00:41:44.502 : en:Chapter 5
00:51:36.677 : en:Chapter 6
01:00:12.901 : en:Chapter 7
01:10:32.395 : en:Chapter 8
01:18:35.127 : en:Chapter 9
01:29:14.724 : en:Chapter 10
01:42:33.147 : en:Chapter 11
01:52:16.897 : en:Chapter 12
01:58:21.219 : en:Chapter 13
02:09:39.981 : en:Chapter 14
02:21:14.466 : en:Chapter 15
02:27:31.342 : en:Chapter 16
02:38:36.006 : en:Chapter 17
02:46:58.342 : en:Chapter 18





1 个附件 售价 大小 下载 时间

The.Batman.2022.1080p.BluRay.x264.TrueHD.7.1.Atmos-FGT.torrent 0 金币 23.91K 3885 次 14天前

#1楼
发帖时间:2022-05-14 23:07:15   |   回复数:1
liyouchai
隐世仙人♂
谢谢楼主分享资源
14天前 #2楼
游客组