travismk
一代宗师

[2019] [欧美] [科幻] [BD-720P] 杀戮天眼/意志 Volition.2019.720p.BluRay.x264-JustWatch 1.72GB

-->

帖子完整标题:杀戮天眼/意志 Volition.2019.720p.BluRay.x264-JustWatch 1.72GB



◎译  名 杀戮天眼/意志
◎片  名 Volition
◎年  代 2019
◎产  地 美国
◎类  别 科幻
◎语  言 英语
◎上映日期 2019-03-15(菲利普·迪克科幻电影节) / 2020-07-10(美国)
◎豆瓣评分 5.6/10 from 415 users
◎豆瓣链接 https://movie.douban.com/subject/30304769/
◎导  演 Tony Dean Smith Tony Dean Smith
◎编  剧 Tony Dean Smith Tony Dean Smith / 瑞安·W·史密斯 Ryan W. Smith
◎主  演 麦达·阿帕诺威茨 Magda Apanowicz
      约翰·卡西尼 John Cassini
      阿莱克斯·潘诺维奇 Aleks Paunovic
      比尔·马钱特 Bill Marchant
      布鲁·曼库马 Blu Mankuma

◎标  签 科幻 | 时间穿梭 | 美国 | 悬疑 | 2019 | 量子纠缠 | 美国电影 | 回到未来

◎简  介

  A man afflicted with clairvoyance tries to change his fate when a series of events leads to a vision of his own imminent murder.

Video
ID : 1
Format : AVC
Format/Info : Advanced Video Codec
Format profile : [email protected]
Format settings : CABAC / 8 Ref Frames
Format settings, CABAC : Yes
Format settings, Reference frames : 8 frames
Codec ID : V_MPEG4/ISO/AVC
Duration : 1 h 32 min
Bit rate : 1 936 kb/s
Width : 1 280 pixels
Height : 536 pixels
Display aspect ratio : 2.40:1
Frame rate mode : Constant
Frame rate : 23.976 (24000/1001/189150) FPS
Color space : YUV
Chroma subsampling : 4:2:0
Bit depth : 8 bits
Scan type : Progressive
Bits/(Pixel*Frame) : 0.118
Stream size : 1.25 GiB (74%)
Writing library : x264 core 164 r3075 66a5bc1
Encoding settings : cabac=1 / ref=8 / deblock=1:-3:-3 / analyse=0x3:0x133 / me=umh / subme=9 / psy=1 / psy_rd=1.00:0.00 / mixed_ref=1 / me_range=16 / chroma_me=1 / trellis=2 / 8x8dct=1 / cqm=0 / deadzone=21,11 / fast_pskip=0 / chroma_qp_offset=-2 / threads=17 / lookahead_threads=1 / sliced_threads=0 / nr=0 / decimate=1 / interlaced=0 / bluray_compat=0 / constrained_intra=0 / bframes=3 / b_pyramid=2 / b_adapt=2 / b_bias=0 / direct=3 / weightb=1 / open_gop=0 / weightp=2 / keyint=250 / keyint_min=23 / scenecut=40 / intra_refresh=0 / rc_lookahead=60 / rc=crf / mbtree=1 / crf=17.0 / qcomp=0.60 / qpmin=0 / qpmax=69 / qpstep=4 / ip_ratio=1.40 / aq=1:1.00
Language : English
Default : Yes
Forced : No

Audio
ID : 2
Format : AC-3
Format/Info : Audio Coding 3
Commercial name : Dolby Digital
Codec ID : A_AC3
Duration : 1 h 32 min
Bit rate mode : Constant
Bit rate : 640 kb/s
Channel(s) : 6 channels
Channel layout : L R C LFE Ls Rs
Sampling rate : 48.0 kHz
Frame rate : 31.250 FPS (1536 SPF)
Compression mode : Lossy
Stream size : 422 MiB (24%)
Title : dts
Language : English
Service kind : Complete Main
Default : Yes
Forced : No

Menu
00:00:00.000 : en:00:00:00.000
00:08:54.534 : en:00:08:54.534
00:22:06.325 : en:00:22:06.325
00:32:33.952 : en:00:32:33.952
00:43:31.609 : en:00:43:31.609
00:53:42.219 : en:00:53:42.219
01:04:35.872 : en:01:04:35.872
01:17:22.638 : en:01:17:22.638
01:28:40.315 : en:01:28:40.315





1 个附件 售价 大小 下载 时间

Volition.2019.720p.BluRay.x264-JustWatch.torrent 0 金币 18.05K 539 次 11天前

#1楼
发帖时间:2021-11-25 22:10:53   |   回复数:1
popeye69
一派掌门
谢谢楼主分享。
11天前 #2楼
游客组