topgood
一派掌门

[更 早] [欧美] [剧情] [BD-720P] 1998轰天战警/凤凰城 Phoenix.1998.720p.BluRay.x264-GUACAMOLE 2.43GB

-->

帖子完整标题:1998轰天战警/凤凰城 Phoenix.1998.720p.BluRay.x264-GUACAMOLE 2.43GB



◎译  名 1998轰天战警/凤凰城/菲尼克斯
◎片  名 Phoenix
◎年  代 1998
◎产  地 美国
◎类  别 剧情 / 犯罪
◎语  言 英语
◎上映日期 1998
◎豆瓣评分 /10 from 0 users
◎豆瓣链接 https://movie.douban.com/subject/1297488/
◎片  长 107 分钟
◎导  演 丹尼·加农 Danny Cannon
◎主  演 George Aguilar George Aguilar
      迪格·维恩 Dig Wayne
      桑德拉·泰勒 Sandra Taylor
      乔治·穆德克 George Murdock
      L. Christian Mixon L. Christian Mixon
      凯瑟琳·茱斯顿 Kathryn Joosten
      Gordon Jennison Noice Gordon Jennison Noice
      安东尼·拉帕格利亚 Anthony LaPaglia
      安杰丽卡·休斯顿 Anjelica Huston
      罗伊斯·D.阿普勒加特 Royce D. Applegate
      杰里米·皮文 Jeremy Piven
      丹尼尔·鲍德温 Daniel Baldwin
      布莱特妮·墨菲 Brittany Murphy
      吉奥瓦尼·瑞比西 Giovanni Ribisi
      雷·利奥塔 Ray Liotta
      山德·贝克利 Xander Berkeley
      吉安卡罗·埃斯波西托 Giancarlo Esposito
      卡瑞·伍尔 Kari Wuhrer
      格伦·莫肖尔 Glenn Morshower
      塔玛拉·克拉特布克 Tamara Clatterbuck
      Sibel Ergener Sibel Ergener
      卡门·菲尔皮 Carmen Filpi
      汤姆·诺南 Tom Noonan

◎标  签 美国犯罪 | 未下载 | 布莱特妮·墨菲 | 卡瑞·伍尔 | ray | liotta

◎简  介

  Unlike many of his Phoenix police detective partners, Harry Collins is a good cop and, despite his very idiosyncratic value system, a decent man. However his compulsive gambling has got him heavily in debt to a gangster bookie. Refusing to Welsh on a bet, and with only 48 hours to pay his debt, Harry is offered a deal: murder Joey, a young prisoner who may provide the police with information about the bookie, and the debt will be written off. Harry can not contemplate such action and prefers to offer Joey some potentially life-saving advice: “You never rat out anyone… It doesn't pay in the long run”.
  
  When Harry's corrupt partner Mike finds out his predicament he volunteers to kill the bookie but Harry dismisses the offer saying he will “never betray a friend”. Instead, Harry comes up with a plan to rob Louie the loan shark, who stashes a large amount of money in the safe in his strip club. To pull this off Harry needs the help of Mike and two other corrupt and brutal cops, James and Fred, busily engaged in moonlighting for Louie.
  
  A budding relationship with Leila, his understanding barmaid, promises Harry a new beginning a long way from Phoenix after he completes the hold up.
  
  All does not go according to plan. Webber turns out to be dirty too killing Fred and fatally wounding Harry while Mike and James are ambushed by the cops, James realizes that there is no way out and decides to turn himself in, Mike kills James and gets blown away by the cops. Harry manages to escape and sabotages Webber at this home. He takes the money Webber took and returns to Chicago to pay off his debt. Harry explains Chicago that he told Joey to shut his mouth but Chicago admits that he ordered someone in prison to slit Joey's throat and tells Harry to do things his way the next time. Harry then draws his gun and kills Chicago and his men. After the shooting Harry leaves the restaurant and drives off the road where he passes away.

Video
ID : 1
Format : AVC
Format/Info : Advanced Video Codec
Format profile : [email protected]
Format settings : CABAC / 8 Ref Frames
Format settings, CABAC : Yes
Format settings, Reference frames : 8 frames
Codec ID : V_MPEG4/ISO/AVC
Duration : 1 h 47 min
Bit rate : 2 782 kb/s
Width : 1 280 pixels
Height : 546 pixels
Display aspect ratio : 2.35:1
Frame rate mode : Constant
Frame rate : 23.976 (24000/1001/189150) FPS
Color space : YUV
Chroma subsampling : 4:2:0
Bit depth : 8 bits
Scan type : Progressive
Bits/(Pixel*Frame) : 0.166
Stream size : 2.09 GiB (86%)
Writing library : x264 core 164 r3065 ae03d92
Encoding settings : cabac=1 / ref=8 / deblock=1:-3:-3 / analyse=0x3:0x133 / me=umh / subme=9 / psy=1 / psy_rd=1.00:0.00 / mixed_ref=1 / me_range=16 / chroma_me=1 / trellis=2 / 8x8dct=1 / cqm=0 / deadzone=21,11 / fast_pskip=0 / chroma_qp_offset=-2 / threads=17 / lookahead_threads=1 / sliced_threads=0 / nr=0 / decimate=1 / interlaced=0 / bluray_compat=0 / constrained_intra=0 / bframes=3 / b_pyramid=2 / b_adapt=2 / b_bias=0 / direct=3 / weightb=1 / open_gop=0 / weightp=2 / keyint=250 / keyint_min=23 / scenecut=40 / intra_refresh=0 / rc_lookahead=60 / rc=crf / mbtree=1 / crf=17.0 / qcomp=0.60 / qpmin=0 / qpmax=69 / qpstep=4 / ip_ratio=1.40 / aq=3:0.60
Default : Yes
Forced : No
Color range : Limited
Matrix coefficients : BT.709

Audio
ID : 2
Format : AC-3
Format/Info : Audio Coding 3
Commercial name : Dolby Digital
Codec ID : A_AC3
Duration : 1 h 47 min
Bit rate mode : Constant
Bit rate : 448 kb/s
Channel(s) : 6 channels
Channel layout : L R C LFE Ls Rs
Sampling rate : 48.0 kHz
Frame rate : 31.250 FPS (1536 SPF)
Compression mode : Lossy
Stream size : 345 MiB (14%)
Language : English
Service kind : Complete Main
Default : Yes
Forced : No

Menu
00:00:00.000 : en:00:00:00.000
00:00:00.375 : en:00:00:00.375
00:15:09.534 : en:00:15:09.534
00:30:09.641 : en:00:30:09.641
00:44:17.572 : en:00:44:17.572
01:00:19.950 : en:01:00:19.950
01:19:26.595 : en:01:19:26.595
01:32:16.614 : en:01:32:16.614
01:43:30.287 : en:01:43:30.287





1 个附件 售价 大小 下载 时间

Phoenix.1998.720p.BluRay.x264-GUACAMOLE.torrent 0 金币 24.97K 546 次 1月前

#1楼
发帖时间:2021-08-03 13:22:48   |   回复数:0
游客组