topgood
一派掌门

[更 早] [欧美] [其他] [BD-720P] 钗光剑影 Pirates.of.Monterey.1942.720p.BluRay.x264-GUACAMOLE 3.37GB

-->

帖子完整标题:钗光剑影 Pirates.of.Monterey.1942.720p.BluRay.x264-GUACAMOLE 3.37GB



◎译  名 钗光剑影
◎片  名 Pirates of Monterey
◎年  代 1947
◎产  地 美国
◎类  别 西部
◎语  言 英语
◎上映日期 1947
◎豆瓣评分 /10 from 0 users
◎豆瓣链接 https://movie.douban.com/subject/5067332/
◎片  长 77 分钟
◎导  演 阿尔弗雷德·L·韦尔克 Alfred L. Werker
◎编  剧 萨姆·海尔曼 Sam Hellman / 布拉德福德·罗普斯 Bradford Ropes / 小爱德华·T·洛 Edward T. Lowe Jr.
◎主  演 玛丽亚·蒙特兹 Maria Montez
      罗德·卡梅隆 Rod Cameron
      米哈伊尔拉苏姆内 Mikhail Rasumny
      菲利浦里德 Phillip Reed
      吉尔伯特·罗兰 Gilbert Roland
      盖尔·桑德加德 Gale Sondergaard
      查尔斯·瓦根海姆 Charles Wagenheim
      罗伯特·沃里克 Robert Warwick
      Lucio Villegas Lucio Villegas
      Michael Raffetto Michael Raffetto
      Victor Romito Victor Romito
      Tamara Shayne Tamara Shayne
      内尔·发莫罗 Neyle Morrow
      乔治·J·刘易斯 George J. Lewis
      约瑟夫·伯纳德 Joseph E. Bernard
      Don Driggers Don Driggers
      Dick Dickinson Dick Dickinson
      Chris-Pin Martin Chris-Pin Martin
      乔治·麦格瑞 George Magrill
      维克特·凡科尼 Victor Varconi

◎简  介

  暂无相关剧情介绍

Video
ID : 1
Format : AVC
Format/Info : Advanced Video Codec
Format profile : [email protected]
Format settings : CABAC / 8 Ref Frames
Format settings, CABAC : Yes
Format settings, Reference frames : 8 frames
Codec ID : V_MPEG4/ISO/AVC
Duration : 1 h 16 min
Bit rate : 6 074 kb/s
Width : 984 pixels
Height : 720 pixels
Display aspect ratio : 4:3
Frame rate mode : Constant
Frame rate : 23.976 (24000/1001/189150) FPS
Color space : YUV
Chroma subsampling : 4:2:0
Bit depth : 8 bits
Scan type : Progressive
Bits/(Pixel*Frame) : 0.358
Stream size : 3.25 GiB (96%)
Writing library : x264 core 164 r3065 ae03d92
Encoding settings : cabac=1 / ref=8 / deblock=1:-3:-3 / analyse=0x3:0x133 / me=umh / subme=9 / psy=1 / psy_rd=1.00:0.00 / mixed_ref=1 / me_range=16 / chroma_me=1 / trellis=2 / 8x8dct=1 / cqm=0 / deadzone=21,11 / fast_pskip=0 / chroma_qp_offset=-2 / threads=22 / lookahead_threads=1 / sliced_threads=0 / nr=0 / decimate=1 / interlaced=0 / bluray_compat=0 / constrained_intra=0 / bframes=3 / b_pyramid=2 / b_adapt=2 / b_bias=0 / direct=3 / weightb=1 / open_gop=0 / weightp=2 / keyint=250 / keyint_min=23 / scenecut=40 / intra_refresh=0 / rc_lookahead=60 / rc=crf / mbtree=1 / crf=18.0 / qcomp=0.60 / qpmin=0 / qpmax=69 / qpstep=4 / ip_ratio=1.40 / aq=3:0.60
Default : Yes
Forced : No
Color range : Limited
Matrix coefficients : BT.709

Audio
ID : 2
Format : AC-3
Format/Info : Audio Coding 3
Commercial name : Dolby Digital
Codec ID : A_AC3
Duration : 1 h 16 min
Bit rate mode : Constant
Bit rate : 224 kb/s
Channel(s) : 2 channels
Channel layout : L R
Sampling rate : 48.0 kHz
Frame rate : 31.250 FPS (1536 SPF)
Compression mode : Lossy
Stream size : 123 MiB (4%)
Language : English
Service kind : Complete Main
Default : Yes
Forced : No

Menu
00:00:00.000 : en:00:00:00.000
00:06:00.986 : en:00:06:00.986
00:12:06.935 : en:00:12:06.935
00:19:46.852 : en:00:19:46.852
00:26:23.373 : en:00:26:23.373
00:31:50.617 : en:00:31:50.617
00:38:00.111 : en:00:38:00.111
00:44:05.017 : en:00:44:05.017
00:50:31.570 : en:00:50:31.570
00:55:34.998 : en:00:55:34.998
01:03:38.773 : en:01:03:38.773
01:12:25.758 : en:01:12:25.758





1 个附件 售价 大小 下载 时间

Pirates.of.Monterey.1942.720p.BluRay.x264-GUACAMOLE.torrent 0 金币 17.57K 315 次 1月前

#1楼
发帖时间:2021-08-03 13:18:44   |   回复数:0
游客组