topgood
一派掌门

[更 早] [欧美] [剧情] [BD-1080P] 野风 Reap.the.Wild.Wind.1942.1080p.BluRay.x264-GUACAMOLE 9.92GB

-->

帖子完整标题:野风 Reap.the.Wild.Wind.1942.1080p.BluRay.x264-GUACAMOLE 9.92GB



◎译  名 野风
◎片  名 Reap the Wild Wind
◎年  代 1942
◎产  地 美国
◎类  别 剧情 / 动作 / 冒险
◎语  言 英语
◎上映日期 1942-03-18
◎豆瓣评分 /10 from 0 users
◎豆瓣链接 https://movie.douban.com/subject/1300239/
◎片  长 123 分钟
◎导  演 塞西尔·B·戴米尔 Cecil B. DeMille
◎编  剧 艾伦·勒梅 Alan Le May / 查尔斯·贝内特 Charles Bennett / 西奥多·圣约翰 Theodore St. John / 小杰西·拉斯基 Jesse Lasky Jr. / 简妮·麦克弗森 Jeanie Macpherson / 特尔玛·施特拉贝尔 Thelma Strabel
◎主  演 雷·米兰德 Ray Milland
      约翰·韦恩 John Wayne
      宝莲·高黛 Paulette Goddard
      King Mojave King Mojave
      Jack Luden Jack Luden
      埃尔默·林肯 Elmo Lincoln
      吉姆·梅森 Jim Mason
      Leota Lorraine Leota Lorraine
      Carl Mathews Carl Mathews
      Tom O'Grady Tom O'Grady
      西里尔·麦克拉格伦 Cyril McLaglen
      克莱尔·麦克道尔 Claire McDowell
      奥托拉内史密斯 Ottola Nesmith
      Buddy Pepper Buddy Pepper
      John Northpole John Northpole
      卡尔·M·莱维尼斯 Carl M. Leviness
      Robert Milasch Robert Milasch
      John Merton John Merton
      弗莱德·格兰姆 Fred Graham
      Frank Lackteen Frank Lackteen
      尤金·杰克逊 Eugene Jackson
      伊桑·莱德劳 Ethan Laidlaw
      Laura Lee Laura Lee
      Carmencita Johnson Carmencita Johnson
      Stubby Kruger Stubby Kruger
      维克托·基利恩 Victor Kilian
      Emmett King Emmett King
      Louise La Planche Louise La Planche
      罗伯特·霍曼斯 Robert Homans
      Hope Landin Hope Landin
      John Merkyl John Merkyl
      Louis Merrill Louis Merrill
      Jack W. Johnston Jack W. Johnston
      乔治·麦格瑞 George Magrill
      山姆·哈里斯 Sam Harris
      Emory Parnell Emory Parnell
      吉尔·帕金斯 Gil Perkins
      约翰·圣波利斯 John St. Polis
      Forrest Taylor Forrest Taylor
      米尔本·斯通 Milburn Stone
      Dale Van Sickel Dale Van Sickel
      Ray Spiker Ray Spiker
      Frank M. Thomas Frank M. Thomas
      Bruce Warren Bruce Warren
      Don Zelaya Don Zelaya
      Dave Wengren Dave Wengren
      Florence Wix Florence Wix
      Lloyd Whitlock Lloyd Whitlock
      Harry Woods Harry Woods
      Blackie Whiteford Blackie Whiteford
      斯坦诺普·惠特克罗夫特 Stanhope Wheatcroft
      Fred Zendar Fred Zendar
      Hayden Stevenson Hayden Stevenson
      Leo Sulky Leo Sulky
      盖·厄舍 Guy Usher
      奥斯卡·波尔克 Oscar Polk
      Lee Prather Lee Prather
      Albert Petit Albert Petit
      林恩·奥弗曼 Lynne Overman
      内斯特帕瓦 Nestor Paiva
      凯斯·理查德 Keith Richards
      伊内斯·西伯利 Ynez Seabury
      Constantine Romanoff Constantine Romanoff
      Frank Shannon Frank Shannon
      弗兰克理查兹 Frank Richards
      伊丽莎白·里斯登 Elisabeth Risdon
      米尔德丽德·谢伊 Mildred Shay
      Allen D. Sewall Allen D. Sewall
      Mel Ruick Mel Ruick
      阿基姆·坦米罗夫 Akim Tamiroff
      玛莎·奥德里斯科尔 Martha O'Driscoll
      维克特·凡科尼 Victor Varconi
      乔治·梅尔福德 George Melford
      蒙蒂·布卢 Monte Blue
      莱恩·钱德勒 Lane Chandler
      格特鲁德·阿斯特 Gertrude Astor
      莫里斯·科斯特罗 Maurice Costello
      斯坦利·安德鲁斯 Stanley Andrews
      Eric Alden Eric Alden
      C.E. Anderson C.E. Anderson
      理查德·亚历山大 Richard Alexander
      Sam Appel Sam Appel
      Edward Peil Sr. Edward Peil Sr.
      布鲁克斯·贝内迪克特 Brooks Benedict
      Janet Beecher Janet Beecher
      Sven Hugo Borg Sven Hugo Borg
      George Barton George Barton
      William Cabanne William Cabanne
      John Power John Power
      Will Stanton Will Stanton
      雷蒙德·马西 Raymond Massey
      雷蒙德·哈顿 Raymond Hatton
      苏珊·海沃德 Susan Hayward
      William D. Faralla William D. Faralla
      查尔斯·比克福德 Charles Bickford
      J·法瑞尔·麦克唐纳 J. Farrell MacDonald
      罗伯特·普雷斯顿 Robert Preston
      塞西尔·B·戴米尔 Cecil B. DeMille
      芭芭拉·布瑞顿 Barbara Britton
      路易丝·比弗斯 Louise Beavers
      George Reed George Reed
      Richard Neill Richard Neill
      多萝西·塞巴斯蒂安 Dorothy Sebastian
      赫达·霍珀 Hedda Hopper
      Mary Currier Mary Currier
      乔治布鲁格曼 George Bruggeman
      萨拉·爱德华兹 Sarah Edwards
      拉尔夫·邓恩 Ralph Dunn
      茱莉亚·法耶 Julia Faye
      William Elmer William Elmer
      Al Ferguson Al Ferguson
      Richard Elmore Richard Elmore
      Jerome DeNuccio Jerome DeNuccio
      查尔斯·K·弗伦奇 Charles K. French
      海伦·迪克森 Helen Dickson
      萨姆·弗林特 Sam Flint
      弗兰克·哈格尼 Frank Hagney
      William Haade William Haade
      Oscar 'Dutch' Hendrian Oscar 'Dutch' Hendrian
      沃尔特·汉普顿 Walter Hampden
      Kenneth Gibson Kenneth Gibson
      米尔德尔德·哈里斯 Mildred Harris
      吉米·邓迪 Jimmie Dundee
      Max Davidson Max Davidson
      弗兰克·弗格森 Frank Ferguson
      Ben Carter Ben Carter
      惠顿·钱伯斯 Wheaton Chambers
      Ed Brady Ed Brady
      Ralph Brooks Ralph Brooks
      汤姆·查特顿 Tom Chatterton
      戴维森·克拉克 Davison Clark
      Tommy Conlon Tommy Conlon
      大卫·克莱德 David Clyde
      阿尔·布里奇 Al Bridge
      Jack Clifford Jack Clifford
      詹姆斯·弗莱文 James Flavin
      拜伦·弗格 Byron Foulger
      James Dime James Dime
      Christian J. Frank Christian J. Frank
      威·威利·戴维斯 William 'Wee Willie' Davis
      Laurie Douglas Laurie Douglas
      George Guhl George Guhl

◎标  签 美国 | 剧情 | 1942 | 塞西尔·B·戴米尔 | 美国电影 | RayMilland | JohnWayne | 约翰·韦恩

◎简  介

  暂无相关剧情介绍

◎获奖情况

  第15届奥斯卡金像奖 ?(1943)
  彩色片最佳摄影(提名) 维克多·米尔纳?/?威廉·V·斯卡尔
  最佳特效 威廉·L·佩雷拉?/?高登·詹宁斯?/?路易斯·梅塞科普?/?法乔特·埃多特
  彩色片最佳艺术指导和室内布景(提名) 汉斯·德雷尔?/?罗兰德·安德森?/?乔治·索利

Video
ID : 1
Format : AVC
Format/Info : Advanced Video Codec
Format profile : [email protected]
Format settings : CABAC / 4 Ref Frames
Format settings, CABAC : Yes
Format settings, Reference frames : 4 frames
Codec ID : V_MPEG4/ISO/AVC
Duration : 2 h 3 min
Bit rate : 11.2 Mb/s
Width : 1 476 pixels
Height : 1 080 pixels
Display aspect ratio : 4:3
Frame rate mode : Constant
Frame rate : 23.976 (24000/1001/189150) FPS
Color space : YUV
Chroma subsampling : 4:2:0
Bit depth : 8 bits
Scan type : Progressive
Bits/(Pixel*Frame) : 0.292
Stream size : 9.66 GiB (98%)
Writing library : x264 core 164 r3065 ae03d92
Encoding settings : cabac=1 / ref=4 / deblock=1:-3:-3 / analyse=0x3:0x133 / me=umh / subme=9 / psy=1 / psy_rd=1.00:0.00 / mixed_ref=1 / me_range=16 / chroma_me=1 / trellis=2 / 8x8dct=1 / cqm=0 / deadzone=21,11 / fast_pskip=0 / chroma_qp_offset=-2 / threads=24 / lookahead_threads=2 / sliced_threads=0 / nr=0 / decimate=1 / interlaced=0 / bluray_compat=0 / constrained_intra=0 / bframes=3 / b_pyramid=2 / b_adapt=2 / b_bias=0 / direct=3 / weightb=1 / open_gop=0 / weightp=2 / keyint=250 / keyint_min=23 / scenecut=40 / intra_refresh=0 / rc_lookahead=60 / rc=crf / mbtree=1 / crf=18.5 / qcomp=0.60 / qpmin=0 / qpmax=69 / qpstep=4 / ip_ratio=1.40 / aq=3:0.60
Default : Yes
Forced : No
Color range : Limited
Matrix coefficients : BT.709

Audio
ID : 2
Format : AC-3
Format/Info : Audio Coding 3
Commercial name : Dolby Digital
Codec ID : A_AC3
Duration : 2 h 3 min
Bit rate mode : Constant
Bit rate : 224 kb/s
Channel(s) : 2 channels
Channel layout : L R
Sampling rate : 48.0 kHz
Frame rate : 31.250 FPS (1536 SPF)
Compression mode : Lossy
Stream size : 198 MiB (2%)
Language : English
Service kind : Complete Main
Default : Yes
Forced : No

Menu
00:00:00.000 : en:00:00:00.000
00:09:45.960 : en:00:09:45.960
00:21:12.521 : en:00:21:12.521
00:33:05.317 : en:00:33:05.317
00:45:57.797 : en:00:45:57.797
00:55:57.229 : en:00:55:57.229
01:07:56.531 : en:01:07:56.531
01:16:03.851 : en:01:16:03.851
01:26:13.418 : en:01:26:13.418
01:38:25.525 : en:01:38:25.525
01:46:54.700 : en:01:46:54.700
01:54:10.594 : en:01:54:10.594
02:02:55.118 : en:02:02:55.118





1 个附件 售价 大小 下载 时间

Reap.the.Wild.Wind.1942.1080p.BluRay.x264-GUACAMOLE.torrent 0 金币 25.70K 350 次 1月前

#1楼
发帖时间:2021-08-03 13:16:47   |   回复数:0
游客组