fg603603
武林盟主

[更 早] [其他] [恐怖] [BD-1080P] 不归路之旅 Invaders.Of.The.Lost.Gold.1982.1080p.BluRay.x264-WATCHABLE 9.83GB

-->

帖子完整标题:不归路之旅 Invaders.Of.The.Lost.Gold.1982.1080p.BluRay.x264-WATCHABLE 9.83GB



◎译  名 不归路之旅/Greed/Horror Safari/Safari of No Return
◎片  名 Invaders of the Lost Gold
◎年  代 1982
◎产  地 意大利
◎类  别 恐怖 / 战争 / 冒险
◎语  言 英语
◎上映日期 1982-09-20(土耳其)
◎豆瓣评分 /10 from 0 users
◎豆瓣链接 https://movie.douban.com/subject/5108178/
◎片  长 90分钟
◎导  演 艾伦·伯金肖 Alan Birkinshaw
◎编  剧 艾伦·伯金肖 Alan Birkinshaw / 迪克·兰德尔 Dick Randall
◎主  演 斯图尔特·惠特曼 Stuart Whitman
      埃德蒙·珀道姆 Edmund Purdom
      伍迪·斯特罗德 Woody Strode
      哈罗德·萨卡塔 Harold Sakata
      劳拉·贾姆瑟 Laura Gemser
      格娜萨斯·巴伯 Glynis Barber
      朱尼克斯 伊诺西恩 Junix Inocian

◎标  签 1980s

◎简  介

  A group of Japanese soldiers are transporting a large shipment of gold through the jungles of the Phillipines when they are captured by a cannibal tribe. After a large battle with the cannibals, several members of the group are dismembered and killed. A few of the soldiers survive and successfully hide the treasure in the jungle. Thirty six years later, an expedition heads into the jungle to locate the lost treasure, and wind up in a battle against the elements. Written by Helltopay27 Plot Synopsis: This plot synopsis is empty. Add a synopsis

Video
ID : 1
Format : AVC
Format/Info : Advanced Video Codec
Format profile : [email protected]
Format settings : CABAC / 4 Ref Frames
Format settings, CABAC : Yes
Format settings, Reference frames : 4 frames
Codec ID : V_MPEG4/ISO/AVC
Duration : 1 h 27 min
Bit rate : 15.4 Mb/s
Width : 1 920 pixels
Height : 1 036 pixels
Display aspect ratio : 1.85:1
Frame rate mode : Constant
Frame rate : 23.976 (24000/1001/189150) FPS
Color space : YUV
Chroma subsampling : 4:2:0
Bit depth : 8 bits
Scan type : Progressive
Bits/(Pixel*Frame) : 0.323
Stream size : 9.44 GiB (96%)
Writing library : x264 core 164 r3065 ae03d92
Encoding settings : cabac=1 / ref=4 / deblock=1:-3:-3 / analyse=0x3:0x133 / me=umh / subme=9 / psy=1 / psy_rd=1.00:0.00 / mixed_ref=1 / me_range=16 / chroma_me=1 / trellis=2 / 8x8dct=1 / cqm=0 / deadzone=21,11 / fast_pskip=0 / chroma_qp_offset=-2 / threads=24 / lookahead_threads=2 / sliced_threads=0 / nr=0 / decimate=0 / interlaced=0 / bluray_compat=0 / constrained_intra=0 / bframes=3 / b_pyramid=2 / b_adapt=2 / b_bias=0 / direct=1 / weightb=1 / open_gop=0 / weightp=2 / keyint=240 / keyint_min=23 / scenecut=40 / intra_refresh=0 / rc_lookahead=60 / rc=crf / mbtree=0 / crf=19.0 / qcomp=0.60 / qpmin=0 / qpmax=69 / qpstep=4 / vbv_maxrate=62500 / vbv_bufsize=78125 / crf_max=0.0 / nal_hrd=none / filler=0 / ip_ratio=1.40 / pb_ratio=1.30 / aq=3:0.70
Default : Yes
Forced : No
Color range : Limited
Matrix coefficients : BT.709

Audio
ID : 2
Format : FLAC
Format/Info : Free Lossless Audio Codec
Codec ID : A_FLAC
Duration : 1 h 27 min
Bit rate mode : Variable
Bit rate : 617 kb/s
Channel(s) : 2 channels
Channel layout : L R
Sampling rate : 48.0 kHz
Frame rate : 11.719 FPS (4096 SPF)
Bit depth : 24 bits
Compression mode : Lossless
Stream size : 387 MiB (4%)
Writing library : libFLAC 1.3.3 (UTC 2019-08-04)
Language : English
Default : Yes
Forced : No

Text #1
ID : 3
Format : PGS
Muxing mode : zlib
Codec ID : S_HDMV/PGS
Codec ID/Info : Picture based subtitle format used on BDs/HD-DVDs
Duration : 1 h 25 min
Bit rate : 31.6 kb/s
Count of elements : 1484
Stream size : 19.4 MiB (0%)
Title : SDH
Language : English
Default : No
Forced : No

Text #2
ID : 4
Format : UTF-8
Codec ID : S_TEXT/UTF8
Codec ID/Info : UTF-8 Plain Text
Duration : 1 h 25 min
Bit rate : 50 b/s
Count of elements : 1053
Stream size : 31.4 KiB (0%)
Title : SDH
Language : English
Default : No
Forced : No

Menu
00:00:00.000 : Chapter 01
00:10:48.898 : Chapter 02
00:19:24.663 : Chapter 03
00:28:57.110 : Chapter 04
00:36:56.256 : Chapter 05
00:44:24.745 : Chapter 06
00:53:42.678 : Chapter 07
01:04:38.875 : Chapter 08
01:11:00.673 : Chapter 09
01:16:33.255 : Chapter 10





1 个附件 售价 大小 下载 时间

Invaders.Of.The.Lost.Gold.1982.1080p.BluRay.x264-WATCHABLE.torrent 0 金币 25.29K 357 次 1月前

#1楼
发帖时间:2021-08-03 11:25:15   |   回复数:0
游客组