topgood
一派掌门

[2012] [欧美] [其他] [WEB-1080P] 拉辛的星期一/拉辛礼拜一 Mondays.at.Racine.2012.1080p.WEBRip.x264-RARBG 771.36MB

-->

帖子完整标题:拉辛的星期一/拉辛礼拜一 Mondays.at.Racine.2012.1080p.WEBRip.x264-RARBG 771.36MB



◎译  名 拉辛的星期一/拉辛礼拜一
◎片  名 Mondays at Racine
◎年  代 2012
◎产  地 美国
◎类  别 纪录片 / 短片 / 家庭
◎语  言 英语
◎上映日期 
◎豆瓣评分 /10 from 0 users
◎豆瓣链接 https://movie.douban.com/subject/20508848/
◎片  长 39分钟
◎导  演 辛西娅·韦德 Cynthia Wade
◎主  演 Rachel Delmolfetto Rachel Delmolfetto
      Linda Hart Linda Hart
      Cynthia Sansone Cynthia Sansone
      Cambria Russell Cambria Russell

◎标  签 纪录片 | 短片 | 美国 | 生命 | 奥斯卡 | oscar2013提名 | 美国电影 | 希望

◎简  介

  Every third Monday of the month, two bold, brassy sisters open the doors of their Long Island hair salon to women diagnosed with cancer. As locks of hair fall to the floor, women gossip, giggle, weep, face their fears, and discover unexpected beauty.

◎获奖情况

  第85届奥斯卡金像奖 ?(2013)
  最佳纪录短片(提名) 辛西娅·韦德?/?罗宾·霍南

Video
ID : 1
Format : AVC
Format/Info : Advanced Video Codec
Format profile : [email protected]
Format settings : CABAC / 4 Ref Frames
Format settings, CABAC : Yes
Format settings, Reference frames : 4 frames
Codec ID : avc1
Codec ID/Info : Advanced Video Coding
Duration : 39 min 28 s
Bit rate : 2 500 kb/s
Width : 1 920 pixels
Height : 1 080 pixels
Display aspect ratio : 16:9
Frame rate mode : Constant
Frame rate : 29.970 (29970/1000/189150) FPS
Color space : YUV
Chroma subsampling : 4:2:0
Bit depth : 8 bits
Scan type : Progressive
Bits/(Pixel*Frame) : 0.040
Stream size : 706 MiB (91%)
Writing library : x264 core 152 r2851M ba24899
Encoding settings : cabac=1 / ref=4 / deblock=1:-1:-1 / analyse=0x3:0x113 / me=umh / subme=9 / psy=1 / psy_rd=1.00:0.15 / mixed_ref=1 / me_range=24 / chroma_me=1 / trellis=2 / 8x8dct=1 / cqm=0 / deadzone=21,11 / fast_pskip=1 / chroma_qp_offset=-3 / threads=16 / lookahead_threads=4 / sliced_threads=0 / nr=0 / decimate=1 / interlaced=0 / bluray_compat=0 / constrained_intra=0 / bframes=3 / b_pyramid=2 / b_adapt=2 / b_bias=0 / direct=3 / weightb=1 / open_gop=0 / weightp=2 / keyint=250 / keyint_min=25 / scenecut=40 / intra_refresh=0 / rc_lookahead=50 / rc=2pass / mbtree=1 / bitrate=2500 / ratetol=1.0 / qcomp=0.60 / qpmin=0 / qpmax=69 / qpstep=4 / cplxblur=20.0 / qblur=0.5 / vbv_maxrate=31250 / vbv_bufsize=31250 / nal_hrd=none / filler=0 / ip_ratio=1.40 / aq=3:1.00
Encoded date : UTC 2021-08-02 19:06:39
Tagged date : UTC 2021-08-02 19:06:39
Codec configuration box : avcC

Audio
ID : 2
Format : AAC LC
Format/Info : Advanced Audio Codec Low Complexity
Codec ID : mp4a-40-2
Duration : 39 min 28 s
Duration_LastFrame : -11 ms
Bit rate mode : Constant
Bit rate : 224 kb/s
Channel(s) : 6 channels
Channel layout : C L R Ls Rs LFE
Sampling rate : 48.0 kHz
Frame rate : 46.875 FPS (1024 SPF)
Compression mode : Lossy
Stream size : 63.2 MiB (8%)
Language : English
Default : Yes
Alternate group : 1
Encoded date : UTC 2021-08-02 19:06:39
Tagged date : UTC 2021-08-02 19:06:39





1 个附件 售价 大小 下载 时间

Mondays.at.Racine.2012.1080p.WEBRip.x264-RARBG.torrent 0 金币 15.82K 252 次 1月前

#1楼
发帖时间:2021-08-03 10:20:24   |   回复数:0
游客组