squallzhao
武林盟主

[2017] [欧美] [其他] [WEB-1080P] 背离亲缘/那些与众不同的孩子 Far.from.the.Tree.2017.1080p.AMZN.WEBRip.DDP5.1.x264-Candial 4.69

-->

帖子完整标题:背离亲缘/那些与众不同的孩子 Far.from.the.Tree.2017.1080p.AMZN.WEBRip.DDP5.1.x264-Candial 4.69GB



◎译  名 背离亲缘/那些与众不同的孩子
◎片  名 Far From The Tree
◎年  代 2017
◎产  地 美国
◎类  别 纪录片
◎语  言 英语
◎上映日期 2018-05-12(新西兰)
◎豆瓣评分 /10 from 0 users
◎豆瓣链接 https://movie.douban.com/subject/30192269/
◎片  长 93分钟

◎标  签 纪录片 | 家庭 | 纪录片-人文 | 同性 | 美国电影 | 2017 | 美(加)国电影 | gay

◎简  介

  根据获奖著作《背离亲缘》改编,讲了那些与众不同的孩子,他们的父母,以及他们寻找身分认同的故事。艾美奖获奖人Rachel Dretzin跟踪采访了几个“特殊”家庭,他们的孩子或患有唐氏综合征,或侏儒症,或自闭症。通过这些孩子以及他们的父母,展现了当今社会稀缺的包容和爱。

Video
ID : 1
Format : AVC
Format/Info : Advanced Video Codec
Format profile : [email protected]
Format settings : CABAC / 4 Ref Frames
Format settings, CABAC : Yes
Format settings, Reference frames : 4 frames
Codec ID : V_MPEG4/ISO/AVC
Duration : 1 h 32 min
Bit rate : 6 601 kb/s
Width : 1 920 pixels
Height : 1 080 pixels
Display aspect ratio : 16:9
Frame rate mode : Constant
Frame rate : 23.976 (24000/1001/189150) FPS
Color space : YUV
Chroma subsampling : 4:2:0
Bit depth : 8 bits
Scan type : Progressive
Bits/(Pixel*Frame) : 0.133
Stream size : 4.28 GiB (91%)
Language : English
Default : Yes
Forced : No
Color range : Limited
Color primaries : BT.709
Transfer characteristics : BT.709
Matrix coefficients : BT.709

Audio
ID : 2
Format : E-AC-3
Format/Info : Enhanced AC-3
Commercial name : Dolby Digital Plus
Codec ID : A_EAC3
Duration : 1 h 32 min
Bit rate mode : Constant
Bit rate : 640 kb/s
Channel(s) : 6 channels
Channel layout : L R C LFE Ls Rs
Sampling rate : 48.0 kHz
Frame rate : 31.250 FPS (1536 SPF)
Compression mode : Lossy
Stream size : 425 MiB (9%)
Language : English
Service kind : Complete Main
Default : Yes
Forced : No

Text
ID : 3
Format : UTF-8
Codec ID : S_TEXT/UTF8
Codec ID/Info : UTF-8 Plain Text
Duration : 1 h 32 min
Bit rate : 74 b/s
Count of elements : 1585
Stream size : 50.4 KiB (0%)
Language : English
Default : Yes
Forced : No





1 个附件 售价 大小 下载 时间

Far.from.the.Tree.2017.1080p.AMZN.WEBRip.DDP5.1.x264-Candial.torrent 0 金币 47.59K 252 次 12天前

#1楼
发帖时间:2021-06-11 23:42:23   |   回复数:0
游客组